Publicly, in front of others - publicly and forcefully, ... bullying!
 

Navigation
 

Popular pages

We Have Found
 

Publicly, in front of others - publicly and forcefully, ... bullying!



bdsm / Jun 6 2011 - 03:04:59 AM


Publicly, in front of others - publicly and forcefully, ... bullying!






Description:
great game, sensual scenes, beautiful furnishings -
All this in the past
TAPERICHA SEKAS !!!!! GUBY And BESPASCHADNVYYEEE

General
Complete name: E: OGpd12410-JamesDeen LouCharmellePD_12410_JamesDeen_LouCharmelle.wmv
Format: Windows Media
File size: 795 MiB
Duration: 1h 6mn
Overall bit rate mode: Variable
Overall bit rate: 1676 Kbps
Maximum Overall bit rate: 7158 Kbps
Encoded date: UTC 2011-04-15 21:56:38.770
Rating: xxx


Video
ID: 2
Format: VC-1
Format profile: MP @ HL
Codec ID: WMV3
Codec ID / Info: Windows Media Video 9
Codec ID / Hint: WMV3
Description of the codec: Windows Media Video 9 - Professional
Duration: 1h 6mn
Bit rate mode: Variable
Bit rate: 1500 Kbps
Width: 1280 pixels
Height: 720 pixels
Display aspect ratio: 16:9
Frame rate: 29.970 fps
Resolution: 24 bits
Scan Progressive
Bits / (Pixel * Frame): 0.054
Stream size: 711 MiB (89%)

Audio
ID: 1
Format: WMA
Format version: Version 2
Codec ID: 161
Codec ID / Info: Windows Media Audio
Description of the codec: Windows Media Audio 9.1 - 128 kbps, 44 kHz, stereo 2-pass CBR
Duration: 1h 6mn
Bit rate mode: Constant
Bit rate: 128 Kbps
Channel (s): 2 channels
Sampling rate: 44.1 KHz
Resolution: 16 bits
Stream size: 60.7 MiB (8%)
File size: 794.9 MB







Publicly in front of others publicly and forcefully ... bullying

Free Downloads Publicly, in front of others - publicly and forcefully, ... bullying!, Shareware, Ftp, Direct links, RapidShare, Megaupload, DepositFiles, HotFile, Uploading, Easy-Share.
Related Posts "Publicly, in front of others - publicly and forcefully, ... bullying!":

Search


 

Popular Search

 

Partners

 

This site does not store any files on its server. We only index and link to content provided by other sites.

RSS | Site Map | Map | PageMap

Copyright © Free Porn, Sex, Tube Videos, XXX Pics, Porno Movies. All rights reserved.